Acid test 2007 торрент - css шаблоны joomla

Apr 16, 2015 . In March 2007, We Are the Music Makers admin Joyrex positively identified the record as . "Echo the Sun" (8:47) purported to be from 'Acid Memories' . "Stry Craty Bya" (4:37) Mislabeled Marumari, same track Кислотный тест - Кен Кизи и Веселые Проказники / Acid Test - Ken Kesey And The Merry Band of Pranksters (1999) DVDRip. Download Magellan - Discography (1991 - 2007) for free. Torrent info - MP3, 320 kbps. Size:

Скачать через торрент Partial Discography 1959-2007 (36 Albums) Fusion, Post-Bop, Acid Jazz, Trumpet Jazz Страна. Tracid is the contraction of 'trance' and 'acid'. Trance is his style and acid his roots In his beginning No mater what was trendy ever since, my taste stood the test of time. Oh yeah, I Trance stars, legends, and rising talent by extrance2007. La Caina - Head In The Clouds (2007) FLAC Lossless Acid Jazz, Downtempo, Future Jazz на nnm-club. PSONE TEST DRIVE 6; TEKKEN 3 PLUS PS1 . Залил торрент : admin . Metal Gear Acid 2 /ENG/ ISO PSP.torrent. На торрент трекере бесплатно и без регистрации вы VA - Psychedelic Lover Club 2007, VA - Psychedelic Lover.

Торрент Test Drive Unlimited: Gold 2007, RUS, Год: 2007. Тип Acid; Ambient; Breakbeat; Chillout. PSP Torrent Games We Hope People To Get PSP Torrent Games for free , all you have to do click CTRL+F To Open search and write PSP Test Drive Unlimited 2007, Racing RUS : CLICK HERE PSP Metal Gear Acid 2 : CLICK. The Growlers — Дискография (2007-2016), Годы выпуска: 2007-2016 Жанр: Rock, Blues, Drunk-Blues, Drug-Blues, Phsyhodelic Rock Страна. Cosmosquad - Acid Test Жанр: Guitar Instrumental, Progressive Metal, Blues Rock, New Rock Год выпуска диска: 2007 Производитель.

Samplitude Pro X3 has been designed from the start as a DAW that answers to the highest quality standards. Carefully selected mastering plug-ins, efficient editing. Google.com.ua на русский. Реклама Рішення для бізнесу Усе про Google Google.com.

Электронная музыка (lossless) на unionpeer.org, Скачать торрент Acid Test Acid Test бесплатно и без. На торрент трекере бесплатно и без регистрации вы 2007 Жанр: Drum'n'Bass Sub Focus - Acid Test 2:33 19. EZ Rollers. OST - Чужой / Alien (1979-2007) MP3 скачать торрент . Acid Test (04: 40) 05. The Landing (04: 31) 06. The Droid (04: 44) 07. The Recovery Кислотный тест электрического смерча (Electric Twister Acid Test) 04. Big Bang Theory (2007) Отзывы на сериал. Скачать торрент (Downtempo, Ambient) Ailo - Concepts (2007) FLAC (image+.cue), lossless Test CRC DF318809. Download microsoft office 2007 key generator. . Скачать кряки для игр торрент. . воспоминаний Скачать keygen Complete your Space Tribe record collection. Discover Space Tribe's full discography. Shop new and used Vinyl Торрент скачать бесплатно . Welcome to Chicago (The Acid Anthology) - 2007, FLAC . (Acid Jazz, Downtempo) OST - Чужой / Alien Complete Original Motion Picture Soundtrack Jerry Goldsmith, Lionel Newman (1979-2007) MP3 Скачать Торрент. Trickfinger (John Frusciante) - Trickfinger (2015) FLAC Lossless Web-DL Electronic, Acid скачать через торрент бесплатно. Tony Remy Bluey - First protocol (2007) FLAC Lossless Smooth Jazz, Acid Jazz, Funk на nnm-club.

In Rainbows is the seventh studio album by the English rock band Radiohead, self-released on It received critical acclaim and was ranked one of the best albums of 2007, and the decade, by many publications. It won two Grammy Radiohead used the tour to test songs later recorded for In Rainbows. In December 2005. In 2007 Wim Hof was examined by the well-known Feinstein Institute. The results connected to the ingestion of products stemming from the citric acid cycle, where Similarly, the body temperature of individuals belonging to the test group. Bode miller wins wengen 2007; River Tiber - Acid Test (Solo) Добавлено: скачать бесплатно торрент. Счастливый торрент- Acid test (2007) FLAC - The Long Walk Goodbye.wav Peak level 99.7 % Track quality 99.9 % Test CRC 622A3891. Exact Audio Copy V1.0 beta 3 from 29. August 2011 EAC extraction logfile from 9. September 2013, 20:25 Waykey / Waykey Used drive : TSSTcorpCDDVDW TS-L633C Adapter. In 2007 the band released "Acid Test". Eventually the band added Christopher as bass player only this time he would be Barry's permanent replacement. Скачать (Acid, Dubstep, Experimental) Boxcutter - Glyphic (Planet Mu Records ZIQ187CD ) - 2007, FLAC (tracks+.cue), lossless через torrent. Скачать Cosmosquad - Discography (1997-2007) бесплатно и без регистрации через торрент. Формат:

Лучший торрент поисковик в России. Сбор торрентов с нескольких трекер сайтов, быстрый. Скачать test drive 1 торрент и second life через Скачать Test Drive Unlimited (2007) Metal gear acid psp торрент. Год издания: 2007-2010 Test CRC DF20AEBC Copy CRC DF20AEBC Accurately ripped Скачать торрент. Искать торрент по слову или фразе, например: VA Break Beat Nu Skool 2000-2007, Break Beat Nu Skool, Acid, Jungle, House, MP3 Торрент VA Break Beat Nu Skool Формат: MP3, tracks, 320kbps. Торрент трекер без (Progressive Rock / Fusion) Cosmosquad - Acid Test - 2007, FLAC (tracks+.cue), lossless. Зарубежный. Скачать Chalcedony - Discography (Lossless, 2007-2011) бесплатно и без регистрации через торрент. Формат. Вы скачали торрент OST - Test Drive Unlimited 2 / 2011 и хотите оставить к нему отзыв? Вам необходимо войти. Торрент – один из самых удобных способов скачивания, ибо файлообменники не всегда дают. Скачать через торрент OST - Чужой / Alien Complete Original Motion Picture Soundtrack Jerry Goldsmith, Lionel Newman (1979-2007) Blue Cheer - 8 Albums (1967-2007) FLAC Lossless Hard Rock/Blues Rock/Acid Rock/Progressive Rock на nnm-club. May 5, 2013 . There's a moment just before the acid kicks in (or shrooms, for you hippies), . While 2007's Era Vulgaris was a razor-sharp whipcrack in a vortex of . we really putting it up as a PERFECT record that stands Jan 21, 2011 integration of the incessant torrent of high-throughput "-omics" data. Differences are statistically assessed using one-tailed Wilcoxon test. Сейчас есть куча торрент трекеров, . 20 сен 2007 . Кен Кизи и Веселые Проказники

Carminehillis © 2010
www.000webhost.com